Регистрация ·  Логин: Пароль: Запомнить   · Забыли пароль?



Торрент трекер rutracker1.ml.
Скачать торрент Смерш / Smersh (Серия 1-12 из 12)(Олег Фомин) [2019, Детектив, боевик, история, военный, драма, HDTVRip-AVC][DD5.1], размером 8.48 ГБ



Ответить на тему
Статистика раздачи
Размер: 8.48 ГБ | Зарегистрирован: 04 май 2019, 22:01 | .torrent скачан: 13 раз(а)
Сидеров: [ 3  | 0 байт/сек ]   Личеров: [ 0  | 0 байт/сек ]   DHT: [ 3 / 0 ]
Автор Сообщение

Почётный релизер
Аватара пользователя

Стаж: 2 года 4 месяца
Сообщения: 82
Откуда: КРАСНОГОРСК
СССР

Сообщение 04 май 2019, 22:01 

[Цитировать]

Смерш / Smersh Серия 1-12 из 12 -Полный Комплект



Год выпуска: 2019
Выпущено: Россия, , Star Media
Жанр: Детектив, боевик, история, военный, драма
Продолжительность: 00:45:00
Серия: 1-12
Количество серий в сезоне:12
Озвучка : -Русский

Релиз Без Рекламы

Кинопоиск

Режиссеры:
Олег Фомин

В ролях: Алексей Макаров, Владислав Котлярский, Олег Фомин, Леонид Громов, Николай Козак, Александр Обласов, Анатолий Гущин, Александра Богданова (I), Евгения Малахова, Светлана Степанковская, Денис Константинов, Дмитрий Лавров, Максим Литовченко, Михаил Дорожкин, Андрей Пискарёв



История противостояния секретной разведслужбы СССР и Третьего Рейха в годы Великой Отечественной войны.

В центре сюжета — судьба офицера Красной армии Георгия Волкова, который ведёт ожесточённую борьбу со своим заклятым врагом — агентом Абвера Конрадом фон Бютцевом. История начинается 21 июня 1941 года. Волков везёт в Советский Союз партию изумрудов по торговому договору между СССР и Германией, а также секретные документы, ценность которых выше любых драгоценных камней. Начинается война. Поезд, в котором едет Волков, захватывают немцы. Становится ясно, что ради важных агентурных сведений Бютцев готов пойти на что угодно…




Качество :HDTVRip-AVC
Формат: MKV
Видео кодек: H264
Видео: 2065Кбит/сек,1024х428(2.40.1),в 25.000кадр/сек,AVC ([email protected])(1 Ref Frames)

Аудио Кодек:AC3
Аудио #1:AC3 , 192 Kbps, 48.0 KHz, 6 ch-Русский


Общее
Уникальный идентификатор : 107933780560036106474204229401239456748 (0x51334A3D625EBCABF12851A432F98BEC)
Полное имя : C:\Users\Russian Patriot\Downloads\СМЕРШ - SMERH\SMERH_2019_Е01-Е12_Н264_DD5.1_N.B_HDTVRip-AVC_Rus\Smersh_2019_Е01-Е03_Н264_DD5.1_N.B_HDTVRip-AVC_Rus.mkv
Формат : Matroska
Версия формата : Version 4
Размер файла : 2,17 Гбайт
Продолжительность : 2 ч. 17 м.
Режим общего битрейта : Переменный
Общий поток : 2258 Кбит/сек
Название фильма : Smersh 2019 Е01-Е03 @ Nikolai.Baranov & PIRATIYA
Дата кодирования : UTC 2019-04-29 15:44:57
Программа кодирования : mkvmerge v33.1.0 ('Primrose') 64-bit
Библиотека кодирования : libebml v1.3.7 + libmatroska v1.5.0

Видео
Идентификатор : 1
Формат : AVC
Формат/Информация : Advanced Video Codec
Профиль формата : [email protected]
Настройки формата : 1 Ref Frames
Параметр CABAC формата : Нет
Параметр RefFrames формата : 1 кадр
Параметр GOP формата : M=1, N=12
Идентификатор кодека : V_MPEG4/ISO/AVC
Продолжительность : 2 ч. 17 м.
Вид битрейта : Переменный
Битрейт : 2065 Кбит/сек
Максимальный битрейт : 20,2 Мбит/сек
Ширина : 1024 пикселя
Высота : 428 пикселей
Соотношение сторон : 2,40:1
Соотношение сторон в оригинале : 2,40:1
Режим частоты кадров : Постоянный
Частота кадров : 25,000 кадров/сек
Частота кадров в оригинале : 24,000 кадра/сек
Цветовое пространство : YUV
Субдискретизация насыщенности : 4:2:0
Битовая глубина : 8 бит
Тип развёртки : Прогрессивная
Бит/(Пиксели*Кадры) : 0.188
Размер потока : 1,99 Гбайт (91%)
Заголовок : Smersh_2019_Е01-Е03_Н264_DD5.1_N.B_HDTVRip-AVC_Rus
Язык : Russian
Default : Нет
Forced : Нет

Аудио
Идентификатор : 2
Формат : AC-3
Формат/Информация : Audio Coding 3
Коммерческое название : Dolby Digital
Идентификатор кодека : A_AC3
Продолжительность : 2 ч. 17 м.
Вид битрейта : Постоянный
Битрейт : 192 Кбит/сек
Каналы : 6 каналов
ChannelLayout : L R C LFE Ls Rs
Частота : 48,0 КГц
Частота кадров : 31,250 кадров/сек (1536 SPF)
Битовая глубина : 16 бит
Метод сжатия : С потерями
Размер потока : 189 Мбайт (9%)
Заголовок : Russian @DD5.1 AC3, 192 Kbps, 48.0 KHz, 6 ch
Язык : Russian
ServiceKind/String : Complete Main
Default : Нет
Forced : Нет

Меню
00:00:00.000 : :Глава 01 / :Глава 01









1. Открыть торрент
2. Снять галки с тех файлов торрента, которые мы не хотим закачивать. Оставляем только на нужных нам файлах (файле).
3. Нажать О.К.

В клиенте utorrent

Инструкция

1) Открыть торрент


2) Снять галки с тех файлов торрента, которые мы не хотим закачивать:

* либо вручную, снимая с каждого файла галку( скрин №1)
* либо, нажав кнопку "Снять метки (Select None)", сняв сразу со всех файлов(скрин №2)
№1

№2

Оставляем только на нужных нам файлах (файле).

3)Нажать О.К







Релиз от: Nikolai.Baranov & PIRATIYA . Поблагодарить:
ЯД: 410017546713876








Время раздачи : 24/7


Скачать .torrent 8.48 ГБ

Смерш / Smersh (Серия 1-12 из 12)(Олег Фомин) [2019, Детектив, боевик, история, военный, драма, HDTVRip-AVC][DD5.1]

Download
Для скачивания .torrent файлов необходима регистрация
Сайт не распространяет и не хранит электронные версии произведений, а лишь предоставляет доступ к создаваемому пользователями каталогу ссылок на торрент-файлы, которые содержат только списки хеш-сумм

Страница 1 из 1

Ответить на тему

   Похожие торренты   Торрент